百度云電影論壇

 找回密碼
 立即注冊
打印 上一主題 下一主題

哈麗特 Harriet.2019.1080p.BluRay.x264-GECKOS 9.87GB

[復制鏈接]
?
跳轉到指定樓層
樓主
帖子完整標題:哈麗特 Harriet.2019.1080p.BluRay.x264-GECKOS 9.87GB





◎譯  名 哈麗特 / Freedom Fire / 自由之火
◎片  名 Harriet
◎年  代 2019
◎產  地 美國
◎類  別 劇情 / 傳記 / 歷史
◎語  言 英語
◎上映日期 2019-09-10(多倫多電影節) / 2019-11-01(美國)
◎IMDb評分  6.3/10 from 4791 users
◎bt電影天堂 www.btddy.com
◎片  長 125分鐘
◎導  演 卡斯·萊蒙斯 Kasi Lemmons
◎編  劇 卡斯·萊蒙斯 Kasi Lemmons / 格雷戈里·艾倫·霍華德 Gregory Allen Howard
◎主  演 辛西婭·艾莉佛 Cynthia Erivo
       喬·阿爾文 Joe Alwyn
       加奈兒·夢奈 Janelle Monáe
       詹妮弗·內特爾斯 Jennifer Nettles
       蒂姆·金尼 Tim Guinee
       瓦妮莎·貝爾·卡洛威 Vanessa Bell Calloway
       克拉克·彼得斯 Clarke Peters
       小萊斯利·奧多姆 Leslie Odom Jr.
       沃迪·科蒂斯·霍爾 Vondie Curtis-Hall
       黛博拉·艾里德 Deborah Ayorinde
       托利·基特爾斯 Tory Kittles
       奧馬爾·J·多爾西 Omar J. Dorsey
       米切爾·霍格 Mitchell Hoog
       施奎塔·詹姆斯 Shiquita James
       扎克瑞·莫莫 Zackary Momoh
       阿里婭·布魯克斯 Aria Brooks
       邁克爾·圖爾克 Michael Tourek
       約瑟夫·李·安德森 Joseph Lee Anderson
       皮特·布里斯 Pete Burris
       托馬斯·基根 Thomas Keegan


◎標  簽 傳記 | 美國 | 女性 | 歷史 | 2019 | 劇情 | 自由 | KasiLemmons

◎簡  介  

  喬·阿爾文、小萊斯利·奧多姆將加盟傳記影片[哈麗特],先前宣布加盟的卡司包括辛西婭·埃里沃、克拉克·彼得斯等。塞斯·曼恩(《國土安全》)執導。哈麗特·塔布曼生于1822年,原本是生活在馬里蘭州的黑奴,1849年她逃到北方,不久后加入到幫助奴隸逃亡的美國“地下鐵路”中,成為最活躍的領袖之一,多次回到家鄉帶領其他奴隸逃往北方。南北戰爭爆發后,塔布曼積極參戰,成為北軍中為數不多的女性,戰后她投身了爭取婦女權益的運動。哈麗特也是首位登上美元的女性。影片將于下月在美國弗吉尼亞州開拍。

◎獲獎情況  

  第92屆奧斯卡金像獎(2020)
  最佳女主角(提名) 辛西婭·艾莉佛
  最佳原創歌曲(提名) 辛西婭·艾莉佛 / 喬舒亞·布賴恩·坎貝爾

  第77屆金球獎(2020)
  電影類 劇情片最佳女主角(提名) 辛西婭·艾莉佛
  電影類 最佳原創歌曲(提名)

  第26屆美國演員工會獎(2020)
  電影獎 最佳女主角(提名) 辛西婭·艾莉佛

  第25屆美國評論家選擇電影獎(2020)
  最佳女主角(提名) 辛西婭·艾莉佛
  最佳歌曲(提名)

  第24屆金衛星獎(2020)
  電影部門 劇情片最佳女主角(提名) 辛西婭·艾莉佛
  電影部門 最佳原創配樂(提名)

  第23屆好萊塢電影獎(2019)
  年度突破女演員 辛西婭·艾莉佛

  第40屆倫敦影評人協會獎(2020)
  年度英國/愛爾蘭女演員(提名) 辛西婭·艾莉佛
Video
ID                                       : 1
Format                                   : AVC
Format/Info                              : Advanced Video Codec
Format settings                          : CABAC / 5 Ref Frames
Format settings, CABAC                   : Yes
Format settings, Reference frames        : 5 frames
Codec ID                                 : V_MPEG4/ISO/AVC
Duration                                 : 2 h 5 min
Bit rate                                 : 9 750 kb/s
Width                                    : 1 920 pixels
Height                                   : 808 pixels
Display aspect ratio                     : 2.40:1
Frame rate mode                          : Constant
Frame rate                               : 23.976 (24000/1001) FPS
Color space                              : YUV
Chroma subsampling                       : 4:2:0
Bit depth                                : 8 bits
Scan type                                : Progressive
Bits/(Pixel*Frame)                       : 0.262
Stream size                              : 8.52 GiB (87%)
Writing library                          : x264 core 159 r2991 1771b55
Encoding settings                        : cabac=1 / ref=5 / deblock=1:-3:-3 / analyse=0x3:0x113 / me=umh / subme=8 / psy=1 / psy_rd=1.00:0.00 / mixed_ref=1 / me_range=16 / chroma_me=1 / trellis=1 / 8x8dct=1 / cqm=0 / deadzone=21,11 / fast_pskip=1 / chroma_qp_offset=-2 / threads=25 / lookahead_threads=4 / sliced_threads=0 / nr=0 / decimate=1 / interlaced=0 / bluray_compat=0 / constrained_intra=0 / bframes=3 / b_pyramid=2 / b_adapt=1 / b_bias=0 / direct=3 / weightb=1 / open_gop=0 / weightp=2 / keyint=250 / keyint_min=23 / scenecut=40 / intra_refresh=0 / rc_lookahead=50 / rc=2pass / mbtree=1 / bitrate=9750 / ratetol=1.0 / qcomp=0.60 / qpmin=0 / qpmax=69 / qpstep=4 / cplxblur=20.0 / qblur=0.5 / ip_ratio=1.40 / aq=1:1.00
Language                                 : English
Default                                  : Yes
Forced                                   : No

Audio
ID                                       : 2
Format                                   : DTS
Format/Info                              : Digital Theater Systems
Codec ID                                 : A_DTS
Duration                                 : 2 h 5 min
Bit rate mode                            : Constant
Bit rate                                 : 1 509 kb/s
Channel(s)                               : 6 channels
Channel layout                           : C L R Ls Rs LFE
Sampling rate                            : 48.0 kHz
Frame rate                               : 93.750 FPS (512 SPF)
Bit depth                                : 24 bits
Compression mode                         : Lossy
Stream size                              : 1.32 GiB (13%)
Language                                 : English
Default                                  : Yes
Forced                                   : No

Menu
00:00:00.000                             : en:00:00:00.000
00:07:19.522                             : en:00:07:19.522
00:15:38.229                             : en:00:15:38.229
00:21:44.845                             : en:00:21:44.845
00:26:02.269                             : en:00:26:02.269
00:32:32.534                             : en:00:32:32.534
00:42:15.116                             : en:00:42:15.116
00:47:42.693                             : en:00:47:42.693
00:53:37.673                             : en:00:53:37.673
01:00:14.903                             : en:01:00:14.903
01:05:27.841                             : en:01:05:27.841
01:12:32.974                             : en:01:12:32.974
01:20:03.173                             : en:01:20:03.173
01:24:47.457                             : en:01:24:47.457
01:29:36.705                             : en:01:29:36.705
01:34:13.314                             : en:01:34:13.314
01:42:48.162                             : en:01:42:48.162
01:47:58.389                             : en:01:47:58.389
01:54:02.836                             : en:01:54:02.836
01:58:13.586                             : en:01:58:13.586




                                                                                                                                                                                                        
                                                                                                                                                                                                                                                                                                                                                                                                                                                                                                                                                                                                                                                                                                                                                                                                                                                      
b09f359810a55b29ae0a5a5b1d660a41.torrent (50.11 KB)


回復

使用道具 舉報

百度云電影論壇 ( 遼ICP備17019482號-3 )

本網站所有資源來自網絡,如無意中侵犯了您的權益,請發郵件至 [email protected],立即清除相關鏈接

GMT+8, 2020-2-18 13:04 , Processed in 0.096985 second(s), 21 queries .

Powered by Discuz! X3.2

© 2001-2013 Comsenz Inc.

快速回復 返回頂部 返回列表
江苏快三开奖结果全部