百度云電影論壇

 找回密碼
 立即注冊
打印 上一主題 下一主題

雪人奇緣 Abominable.2019.2160p.BluRay.x265.10bit.SDR.DTS-HD.MA.TrueHD.7.1...

[復制鏈接]
?
跳轉到指定樓層
樓主
帖子完整標題:雪人奇緣 Abominable.2019.2160p.BluRay.x265.10bit.SDR.DTS-HD.MA.TrueHD.7.1.Atmos-SWTYBLZ 17.79GB





◎譯  名 雪人奇緣 / Everest / 壞壞萌雪怪(臺) / 珠穆朗瑪 / 長毛雪寶(港)
◎片  名 Abominable
◎年  代 2019
◎產  地 美國 / 中國大陸
◎類  別 喜劇 / 動畫 / 冒險
◎語  言 英語
◎片  長 97分鐘
◎導  演 吉爾·卡爾頓 Jill Culton / 托德·維爾德曼 Todd Wilderman
◎編  劇 吉爾·卡爾頓 Jill Culton
◎主  演 汪可盈 Chloe Bennet
       阿爾伯特·蔡 Albert Tsai
       艾迪·伊扎德 Eddie Izzard
       莎拉·保羅森 Sarah Paulson
       丹增·諾蓋·特雷納 Tenzing Norgay Trainor
       周采芹 Tsai Chin
       張子楓 Zifeng Zhang
       陳飛宇 Feiyu Chen
       何向東 Xiangdong He
       劉風 Feng Liu
       萬茜 Qian Wan
       蔡明 Ming Cai


◎標  簽 動畫 | 東方夢工廠 | 2019 | 溫情 | 冒險 | 美國 | 喜劇 | 中國大陸

◎簡  介  

  珠穆朗瑪峰的雪人是傳說嗎?不是!不僅不是傳說,它還擁有令人著迷的魔力!少女小藝在天臺上目睹了雪人大毛即將被抓的慘況,決定親自護送大毛回家,她的小伙伴阿俊和鵬鵬也加入了護送隊伍。一路上冒險小分隊路經了千島湖、黃山、樂山大佛等著名的中國景點,雪人大毛為了躲避抓捕者,也逐一展現了自己神奇的魔力。巨大化的蒲公英,一秒變大的藍莓,油菜花海浪,還有什么是雪人大毛的魔力做不到的?而抓捕者也早已在他們的目的地珠峰等待著冒險小分隊步入早已設好的圈套…
Video
ID                                       : 1
Format                                   : HEVC
Format/Info                              : High Efficiency Video Coding
Codec ID                                 : V_MPEGH/ISO/HEVC
Duration                                 : 1 h 37 min
Bit rate                                 : 17.3 Mb/s
Width                                    : 3 840 pixels
Height                                   : 2 076 pixels
Display aspect ratio                     : 1.85:1
Frame rate mode                          : Constant
Frame rate                               : 23.976 (24000/1001) FPS
Color space                              : YUV
Chroma subsampling                       : 4:2:0
Bit depth                                : 10 bits
Bits/(Pixel*Frame)                       : 0.090
Stream size                              : 11.7 GiB (66%)
Title                                    : Abominable.2019.2160p.BluRay.x265.10bit.SDR.DTS-HD.MA.TrueHD.7.1.Atmos-SWTYBLZ
Writing library                          : x265 3.0ed72af837053:[Windows][GCC 8.2.0][64 bit] 10bit
Encoding settings                        : cpuid=1111039 / frame-threads=16 / numa-pools=24,24,24,24 / wpp / no-pmode / no-pme / no-psnr / no-ssim / log-level=2 / input-csp=1 / input-res=3840x2076 / interlace=0 / total-frames=139864 / level-idc=51 / high-tier=1 / uhd-bd=0 / ref=3 / no-allow-non-conformance / repeat-headers / annexb / aud / hrd / info / hash=0 / no-temporal-layers / no-open-gop / min-keyint=1 / keyint=24 / gop-lookahead=0 / bframes=6 / b-adapt=2 / b-pyramid / bframe-bias=0 / rc-lookahead=25 / lookahead-slices=4 / scenecut=40 / radl=0 / no-splice / no-intra-refresh / ctu=64 / min-cu-size=8 / no-rect / no-amp / max-tu-size=32 / tu-inter-depth=1 / tu-intra-depth=1 / limit-tu=0 / rdoq-level=0 / dynamic-rd=0.00 / no-ssim-rd / signhide / no-tskip / nr-intra=0 / nr-inter=0 / no-constrained-intra / strong-intra-smoothing / max-merge=2 / limit-refs=3 / no-limit-modes / me=1 / subme=2 / merange=57 / temporal-mvp / weightp / no-weightb / no-analyze-src-pics / deblock=1:1 / no-sao / no-sao-non-deblock / rd=3 / no-early-skip / rskip / no-fast-intra / no-tskip-fast / no-cu-lossless / no-b-intra / no-splitrd-skip / rdpenalty=0 / psy-rd=0.40 / psy-rdoq=0.00 / no-rd-refine / no-lossless / cbqpoffs=0 / crqpoffs=0 / rc=crf / crf=14.0 / qcomp=0.60 / qpstep=4 / stats-write=0 / stats-read=0 / vbv-maxrate=160000 / vbv-bufsize=160000 / vbv-init=0.9 / crf-max=0.0 / crf-min=0.0 / ipratio=1.40 / pbratio=1.30 / aq-mode=1 / aq-strength=0.40 / cutree / zone-count=0 / no-strict-cbr / qg-size=32 / no-rc-grain / qpmax=69 / qpmin=0 / no-const-vbv / sar=1 / overscan=0 / videoformat=5 / range=0 / colorprim=2 / transfer=2 / colormatrix=2 / chromaloc=0 / display-window=0 / max-cll=0,0 / min-luma=0 / max-luma=1023 / log2-max-poc-lsb=8 / vui-timing-info / vui-hrd-info / slices=1 / opt-qp-pps / opt-ref-list-length-pps / no-multi-pass-opt-rps / scenecut-bias=0.05 / no-opt-cu-delta-qp / no-aq-motion / no-hdr / no-hdr-opt / no-dhdr10-opt / no-idr-recovery-sei / analysis-reuse-level=5 / scale-factor=0 / refine-intra=0 / refine-inter=0 / refine-mv=0 / refine-ctu-distortion=0 / no-limit-sao / ctu-info=0 / no-lowpass-dct / refine-analysis-type=0 / copy-pic=1 / max-ausize-factor=1.0 / no-dynamic-refine / no-single-sei / no-hevc-aq / qp-adaptation-range=1.00
Language                                 : English
Default                                  : Yes
Forced                                   : No

Audio #1
ID                                       : 2
Format                                   : MLP FBA 16-ch
Format/Info                              : Meridian Lossless Packing FBA with 16-channel presentation
Commercial name                          : Dolby TrueHD with Dolby Atmos
Codec ID                                 : A_TRUEHD
Duration                                 : 1 h 37 min
Bit rate mode                            : Variable
Bit rate                                 : 4 374 kb/s
Maximum bit rate                         : 7 389 kb/s
Channel(s)                               : 8 channels
Channel layout                           : L R C LFE Ls Rs Lb Rb
Sampling rate                            : 48.0 kHz
Frame rate                               : 1 200.000 FPS (40 SPF)
Compression mode                         : Lossless
Stream size                              : 2.97 GiB (17%)
Title                                    : Abominable.2019.2160p.BluRay.x265.10bit.SDR.DTS-HD.MA.TrueHD.7.1.Atmos-SWTYBLZ
Language                                 : English
Default                                  : Yes
Forced                                   : No
Number of dynamic objects                : 11
Bed channel count                        : 1 channel
Bed channel configuration                : LFE

Audio #2
ID                                       : 3
Format                                   : DTS XLL
Format/Info                              : Digital Theater Systems
Commercial name                          : DTS-HD Master Audio
Codec ID                                 : A_DTS
Duration                                 : 1 h 37 min
Bit rate mode                            : Variable
Bit rate                                 : 3 904 kb/s
Channel(s)                               : 8 channels
Channel layout                           : C L R LFE Lb Rb Lss Rss
Sampling rate                            : 48.0 kHz
Frame rate                               : 93.750 FPS (512 SPF)
Bit depth                                : 24 bits
Compression mode                         : Lossless
Stream size                              : 2.65 GiB (15%)
Title                                    : Abominable.2019.2160p.BluRay.x265.10bit.SDR.DTS-HD.MA.TrueHD.7.1.Atmos-SWTYBLZ
Language                                 : English
Default                                  : No
Forced                                   : No

Audio #3
ID                                       : 4
Format                                   : AC-3
Format/Info                              : Audio Coding 3
Commercial name                          : Dolby Digital
Codec ID                                 : A_AC3
Duration                                 : 1 h 37 min
Bit rate mode                            : Constant
Bit rate                                 : 448 kb/s
Channel(s)                               : 6 channels
Channel layout                           : L R C LFE Ls Rs
Sampling rate                            : 48.0 kHz
Frame rate                               : 31.250 FPS (1536 SPF)
Bit depth                                : 16 bits
Compression mode                         : Lossy
Stream size                              : 312 MiB (2%)
Title                                    : Abominable.2019.2160p.BluRay.x265.10bit.SDR.DTS-HD.MA.TrueHD.7.1.Atmos-SWTYBLZ
Language                                 : English
Service kind                             : Complete Main
Default                                  : No
Forced                                   : No

Text #1
ID                                       : 5
Format                                   : UTF-8
Codec ID                                 : S_TEXT/UTF8
Codec ID/Info                            : UTF-8 Plain Text
Duration                                 : 1 h 25 min
Bit rate                                 : 46 b/s
Count of elements                        : 1175
Stream size                              : 29.0 KiB (0%)
Title                                    : English-SRT
Language                                 : English
Default                                  : Yes
Forced                                   : No

Text #2
ID                                       : 6
Format                                   : PGS
Muxing mode                              : zlib
Codec ID                                 : S_HDMV/PGS
Codec ID/Info                            : Picture based subtitle format used on BDs/HD-DVDs
Duration                                 : 1 h 35 min
Bit rate                                 : 38.1 kb/s
Count of elements                        : 3090
Stream size                              : 26.1 MiB (0%)
Title                                    : English-PGS
Language                                 : English
Default                                  : No
Forced                                   : No

Text #3
ID                                       : 7
Format                                   : PGS
Muxing mode                              : zlib
Codec ID                                 : S_HDMV/PGS
Codec ID/Info                            : Picture based subtitle format used on BDs/HD-DVDs
Duration                                 : 1 h 35 min
Bit rate                                 : 24.8 kb/s
Count of elements                        : 1994
Stream size                              : 17.0 MiB (0%)
Title                                    : French-PGS
Language                                 : French
Default                                  : No
Forced                                   : No

Text #4
ID                                       : 8
Format                                   : PGS
Muxing mode                              : zlib
Codec ID                                 : S_HDMV/PGS
Codec ID/Info                            : Picture based subtitle format used on BDs/HD-DVDs
Duration                                 : 1 h 35 min
Bit rate                                 : 24.7 kb/s
Count of elements                        : 2156
Stream size                              : 16.9 MiB (0%)
Title                                    : Spanish-PGS
Language                                 : Spanish
Default                                  : No
Forced                                   : No

Menu
00:00:00.000                             : en:Chapter 01
00:04:12.502                             : en:Chapter 02
00:09:11.551                             : en:Chapter 03
00:13:42.905                             : en:Chapter 04
00:16:14.265                             : en:Chapter 05
00:21:35.419                             : en:Chapter 06
00:25:03.127                             : en:Chapter 07
00:29:31.103                             : en:Chapter 08
00:33:58.119                             : en:Chapter 09
00:36:44.452                             : en:Chapter 10
00:41:53.678                             : en:Chapter 11
00:46:31.372                             : en:Chapter 12
00:50:42.998                             : en:Chapter 13
00:56:32.222                             : en:Chapter 14
01:01:41.197                             : en:Chapter 15
01:06:33.865                             : en:Chapter 16
01:11:45.092                             : en:Chapter 17
01:15:27.022                             : en:Chapter 18
01:20:42.212                             : en:Chapter 19
01:26:45.075                             : en:Chapter 20




                                                                                                                                                                                                        
                                                                                                                                                                                                                                                                                                                                                                                                                                                                                                                                                                                                                                                                                                                                                                                                                                                      
a88fef0d176001761d68781f69d832cc.torrent (89.58 KB)


回復

使用道具 舉報

百度云電影論壇 ( 遼ICP備17019482號-3 )

本網站所有資源來自網絡,如無意中侵犯了您的權益,請發郵件至 [email protected],立即清除相關鏈接

GMT+8, 2020-2-18 13:04 , Processed in 0.153485 second(s), 21 queries .

Powered by Discuz! X3.2

© 2001-2013 Comsenz Inc.

快速回復 返回頂部 返回列表
江苏快三开奖结果全部