百度云電影論壇

 找回密碼
 立即注冊
打印 上一主題 下一主題

愛寵大機密2/Pet Pet當家2 The.Secret.Life.of.Pets.2.2019.1080p.3D.1080p...

[復制鏈接]
?
跳轉到指定樓層
樓主




帖子完整標題:愛寵大機密2/Pet Pet當家2 The.Secret.Life.of.Pets.2.2019.1080p.3D.1080p.BluRay.Half-OU.x264.TrueHD.7.1.Atmos-FGT 13.92GB





◎譯  名 愛寵大機密2 / Pet Pet當家2(港) / 寵物當家2(臺) / 寵物的秘密生活2
◎片  名 The Secret Life of Pets 2
◎年  代 2019
◎產  地 美國
◎類  別 喜劇 / 動畫 / 冒險
◎語  言 英語
◎上映日期 2019-06-07(美國) / 2019-07-05(中國大陸)
◎IMDb評分  6.5/10 from 12078 users
◎片  長 86分鐘
◎導  演 克里斯·雷納德 Chris Renaud
◎編  劇 布萊恩·林奇 Brian Lynch
◎主  演 帕頓·奧斯瓦爾特 Patton Oswalt
       凱文·哈特 Kevin Hart
       哈里森·福特 Harrison Ford
       艾瑞克·斯通斯崔特 Eric Stonestreet
       珍妮·斯蕾特 Jenny Slate
       蒂凡尼·哈迪斯 Tiffany Haddish
       蕾克·貝爾 Lake Bell
       達納·卡維 Dana Carvey
       鮑比·莫尼漢 Bobby Moynihan
       漢尼拔·布勒斯 Hannibal Buress
       克里斯·雷納德 Chris Renaud
       艾麗·坎伯爾 Ellie Kemper
       皮特·霍爾姆斯 Pete Holmes
       尼克·克羅爾 Nick Kroll
       肖恩·吉布朗尼 Sean Giambrone
       梅雷迪斯·薩拉格爾 Meredith Salenger
       邁克爾·貝亞蒂 Michael Beattie
       大衛·阿克德 David Acord
       斯科特·摩西爾 Scott Mosier
       杰米·卡米爾 Jaime Camil
       拉瑞恩·紐曼 Laraine Newman
       布萊恩·T·德萊尼 Brian T. Delaney
       杰西卡·迪西可 Jessica Di Cicco
       桑德拉·艾切維里亞 Sandra Echeverría
       加斯·詹寧斯 Garth Jennings
       塔拉·斯特朗 Tara Strong
       弗雷德·塔特西奧 Fred Tatasciore
       約翰·卡西爾 John Kassir
       斯科特·門維爾 Scott Menville
       馬修·伍德 Matthew Wood


◎標  簽 動畫 | 寵物 | 喜劇 | 美國 | 搞笑 | 萌 | 2019 | 動物

◎簡  介  

  《愛寵大機密2》將延續2016年夏天轟動一時的《愛寵大機密》的故事,講述寵物在我們每天離家工作或上學后的生活。照明娛樂創始人兼首席執行官克里斯·梅勒丹德利和他長久以來的合作伙伴珍娜·海莉將共同制作這部續集。《愛寵大機密》是當時開畫成績最好的原創電影,不論是動畫片還是其他類型。
  《愛寵大機密2》繼續由布萊恩·林奇(《小黃人大眼萌》)編劇,并再一次由克里斯·雷納德(《神偷奶爸》系列,《老雷斯的故事》)執導。
Video
ID                                       : 1
Format                                   : AVC
Format/Info                              : Advanced Video Codec
Format settings                          : CABAC / 3 Ref Frames
Format settings, CABAC                   : Yes
Format settings, Reference frames        : 3 frames
Codec ID                                 : V_MPEG4/ISO/AVC
Duration                                 : 1 h 26 min
Bit rate                                 : 16.0 Mb/s
Width                                    : 1 920 pixels
Height                                   : 1 080 pixels
Display aspect ratio                     : 16:9
Frame rate mode                          : Constant
Frame rate                               : 23.976 (24000/1001) FPS
Color space                              : YUV
Chroma subsampling                       : 4:2:0
Bit depth                                : 8 bits
Scan type                                : Progressive
Bits/(Pixel*Frame)                       : 0.322
Stream size                              : 9.35 GiB (67%)
Title                                    : The.Secret.Life.of.Pets.2.2019.1080p.3D.1080p.BluRay.Half-OU.x264.TrueHD.7.1.Atmos-FGT
Writing library                          : x264 core 148
Encoding settings                        : cabac=1 / ref=3 / deblock=1:-1:-1 / analyse=0x3:0 / me=hex / subme=5 / psy=1 / psy_rd=1.00:0.00 / mixed_ref=0 / me_range=16 / chroma_me=1 / trellis=1 / 8x8dct=1 / cqm=0 / deadzone=21,11 / fast_pskip=0 / chroma_qp_offset=0 / threads=24 / lookahead_threads=6 / sliced_threads=0 / nr=0 / decimate=1 / interlaced=0 / bluray_compat=0 / constrained_intra=0 / bframes=2 / b_pyramid=0 / b_adapt=1 / b_bias=0 / direct=1 / weightb=0 / open_gop=0 / weightp=0 / keyint=24 / keyint_min=2 / scenecut=40 / intra_refresh=0 / rc=abr / mbtree=0 / bitrate=16000 / ratetol=1.0 / qcomp=0.60 / qpmin=0 / qpmax=69 / qpstep=4 / ip_ratio=1.40 / pb_ratio=1.30 / aq=1:1.00
Default                                  : Yes
Forced                                   : No
Color range                              : Limited
Color primaries                          : BT.709
Transfer characteristics                 : BT.709
Matrix coefficients                      : BT.709

Audio #1
ID                                       : 2
Format                                   : MLP FBA 16-ch
Format/Info                              : Meridian Lossless Packing FBA with 16-channel presentation
Commercial name                          : Dolby TrueHD with Dolby Atmos
Codec ID                                 : A_TRUEHD
Duration                                 : 1 h 26 min
Bit rate mode                            : Variable
Bit rate                                 : 3 319 kb/s
Maximum bit rate                         : 4 647 kb/s
Channel(s)                               : 8 channels
Channel layout                           : L R C LFE Ls Rs Lb Rb
Sampling rate                            : 48.0 kHz
Frame rate                               : 1 200.000 FPS (40 SPF)
Compression mode                         : Lossless
Stream size                              : 1.99 GiB (14%)
Title                                    : The.Secret.Life.of.Pets.2.2019.1080p.3D.1080p.BluRay.Half-OU.x264.TrueHD.7.1.Atmos-FGT
Language                                 : English
Default                                  : Yes
Forced                                   : No
Number of dynamic objects                : 11
Bed channel count                        : 1 channel
Bed channel configuration                : LFE

Audio #2
ID                                       : 3
Format                                   : AC-3
Format/Info                              : Audio Coding 3
Commercial name                          : Dolby Digital
Codec ID                                 : A_AC3
Duration                                 : 1 h 25 min
Bit rate mode                            : Constant
Bit rate                                 : 448 kb/s
Channel(s)                               : 6 channels
Channel layout                           : L R C LFE Ls Rs
Sampling rate                            : 48.0 kHz
Frame rate                               : 31.250 FPS (1536 SPF)
Bit depth                                : 16 bits
Compression mode                         : Lossy
Stream size                              : 276 MiB (2%)
Title                                    : The.Secret.Life.of.Pets.2.2019.1080p.3D.1080p.BluRay.Half-OU.x264.TrueHD.7.1.Atmos-FGT
Language                                 : English
Service kind                             : Complete Main
Default                                  : No
Forced                                   : No

Audio #3
ID                                       : 4
Format                                   : E-AC-3
Format/Info                              : Enhanced AC-3
Commercial name                          : Dolby Digital Plus
Format profile                           : Blu-ray Disc
Codec ID                                 : A_EAC3
Duration                                 : 1 h 26 min
Bit rate mode                            : Constant
Bit rate                                 : 768 kb/s
Channel(s)                               : 8 channels
Channel layout                           : L R C LFE Ls Rs Lb Rb
Sampling rate                            : 48.0 kHz
Frame rate                               : 31.250 FPS (1536 SPF)
Compression mode                         : Lossy
Stream size                              : 473 MiB (3%)
Title                                    : The.Secret.Life.of.Pets.2.2019.1080p.3D.1080p.BluRay.Half-OU.x264.TrueHD.7.1.Atmos-FGT
Language                                 : Spanish
Service kind                             : Complete Main
Default                                  : No
Forced                                   : No

Audio #4
ID                                       : 5
Format                                   : E-AC-3
Format/Info                              : Enhanced AC-3
Commercial name                          : Dolby Digital Plus
Format profile                           : Blu-ray Disc
Codec ID                                 : A_EAC3
Duration                                 : 1 h 26 min
Bit rate mode                            : Constant
Bit rate                                 : 768 kb/s
Channel(s)                               : 8 channels
Channel layout                           : L R C LFE Ls Rs Lb Rb
Sampling rate                            : 48.0 kHz
Frame rate                               : 31.250 FPS (1536 SPF)
Compression mode                         : Lossy
Stream size                              : 473 MiB (3%)
Title                                    : The.Secret.Life.of.Pets.2.2019.1080p.3D.1080p.BluRay.Half-OU.x264.TrueHD.7.1.Atmos-FGT
Language                                 : Portuguese
Service kind                             : Complete Main
Default                                  : No
Forced                                   : No

Audio #5
ID                                       : 6
Format                                   : AC-3
Format/Info                              : Audio Coding 3
Commercial name                          : Dolby Digital
Codec ID                                 : A_AC3
Duration                                 : 1 h 26 min
Bit rate mode                            : Constant
Bit rate                                 : 640 kb/s
Channel(s)                               : 6 channels
Channel layout                           : L R C LFE Ls Rs
Sampling rate                            : 48.0 kHz
Frame rate                               : 31.250 FPS (1536 SPF)
Bit depth                                : 16 bits
Compression mode                         : Lossy
Stream size                              : 394 MiB (3%)
Title                                    : The.Secret.Life.of.Pets.2.2019.1080p.3D.1080p.BluRay.Half-OU.x264.TrueHD.7.1.Atmos-FGT
Language                                 : Thai
Service kind                             : Complete Main
Default                                  : No
Forced                                   : No

Audio #6
ID                                       : 7
Format                                   : E-AC-3
Format/Info                              : Enhanced AC-3
Commercial name                          : Dolby Digital Plus
Format profile                           : Blu-ray Disc
Codec ID                                 : A_EAC3
Duration                                 : 1 h 26 min
Bit rate mode                            : Constant
Bit rate                                 : 768 kb/s
Channel(s)                               : 8 channels
Channel layout                           : L R C LFE Ls Rs Lb Rb
Sampling rate                            : 48.0 kHz
Frame rate                               : 31.250 FPS (1536 SPF)
Compression mode                         : Lossy
Stream size                              : 473 MiB (3%)
Title                                    : The.Secret.Life.of.Pets.2.2019.1080p.3D.1080p.BluRay.Half-OU.x264.TrueHD.7.1.Atmos-FGT
Language                                 : Chinese
Service kind                             : Complete Main
Default                                  : No
Forced                                   : No

Audio #7
ID                                       : 8
Format                                   : E-AC-3
Format/Info                              : Enhanced AC-3
Commercial name                          : Dolby Digital Plus
Format profile                           : Blu-ray Disc
Codec ID                                 : A_EAC3
Duration                                 : 1 h 26 min
Bit rate mode                            : Constant
Bit rate                                 : 768 kb/s
Channel(s)                               : 8 channels
Channel layout                           : L R C LFE Ls Rs Lb Rb
Sampling rate                            : 48.0 kHz
Frame rate                               : 31.250 FPS (1536 SPF)
Compression mode                         : Lossy
Stream size                              : 473 MiB (3%)
Title                                    : The.Secret.Life.of.Pets.2.2019.1080p.3D.1080p.BluRay.Half-OU.x264.TrueHD.7.1.Atmos-FGT
Language                                 : Chinese
Service kind                             : Complete Main
Default                                  : No
Forced                                   : No

Text #1
ID                                       : 9
Format                                   : PGS
Muxing mode                              : zlib
Codec ID                                 : S_HDMV/PGS
Codec ID/Info                            : Picture based subtitle format used on BDs/HD-DVDs
Duration                                 : 1 h 25 min
Bit rate                                 : 58.5 kb/s
Count of elements                        : 3284
Stream size                              : 35.8 MiB (0%)
Title                                    : English-PGS
Language                                 : English
Default                                  : Yes
Forced                                   : No

Text #2
ID                                       : 10
Format                                   : PGS
Muxing mode                              : zlib
Codec ID                                 : S_HDMV/PGS
Codec ID/Info                            : Picture based subtitle format used on BDs/HD-DVDs
Duration                                 : 1 h 25 min
Bit rate                                 : 36.8 kb/s
Count of elements                        : 2178
Stream size                              : 22.5 MiB (0%)
Title                                    : Spanish-PGS
Language                                 : Spanish
Default                                  : No
Forced                                   : No

Text #3
ID                                       : 11
Format                                   : PGS
Muxing mode                              : zlib
Codec ID                                 : S_HDMV/PGS
Codec ID/Info                            : Picture based subtitle format used on BDs/HD-DVDs
Duration                                 : 1 h 24 min
Bit rate                                 : 37.6 kb/s
Count of elements                        : 2184
Stream size                              : 22.8 MiB (0%)
Title                                    : Portuguese-PGS
Language                                 : Portuguese
Default                                  : No
Forced                                   : No

Text #4
ID                                       : 12
Format                                   : PGS
Muxing mode                              : zlib
Codec ID                                 : S_HDMV/PGS
Codec ID/Info                            : Picture based subtitle format used on BDs/HD-DVDs
Duration                                 : 1 h 24 min
Bit rate                                 : 27.3 kb/s
Count of elements                        : 2160
Stream size                              : 16.5 MiB (0%)
Title                                    : Thai-PGS
Language                                 : Thai
Default                                  : No
Forced                                   : No

Text #5
ID                                       : 13
Format                                   : PGS
Muxing mode                              : zlib
Codec ID                                 : S_HDMV/PGS
Codec ID/Info                            : Picture based subtitle format used on BDs/HD-DVDs
Duration                                 : 1 h 25 min
Bit rate                                 : 29.0 kb/s
Count of elements                        : 2194
Stream size                              : 17.7 MiB (0%)
Title                                    : Chinese-PGS
Language                                 : Chinese
Default                                  : No
Forced                                   : No

Text #6
ID                                       : 14
Format                                   : PGS
Muxing mode                              : zlib
Codec ID                                 : S_HDMV/PGS
Codec ID/Info                            : Picture based subtitle format used on BDs/HD-DVDs
Duration                                 : 1 h 25 min
Bit rate                                 : 30.3 kb/s
Count of elements                        : 2228
Stream size                              : 18.5 MiB (0%)
Title                                    : Chinese-PGS
Language                                 : Chinese
Default                                  : No
Forced                                   : No

Text #7
ID                                       : 15
Format                                   : PGS
Muxing mode                              : zlib
Codec ID                                 : S_HDMV/PGS
Codec ID/Info                            : Picture based subtitle format used on BDs/HD-DVDs
Duration                                 : 1 h 20 min
Bit rate                                 : 233 b/s
Count of elements                        : 10
Stream size                              : 137 KiB (0%)
Title                                    : Spanish-FORCED-PGS
Language                                 : Spanish
Default                                  : No
Forced                                   : No

Text #8
ID                                       : 16
Format                                   : PGS
Muxing mode                              : zlib
Codec ID                                 : S_HDMV/PGS
Codec ID/Info                            : Picture based subtitle format used on BDs/HD-DVDs
Duration                                 : 1 h 20 min
Bit rate                                 : 601 b/s
Count of elements                        : 32
Stream size                              : 354 KiB (0%)
Title                                    : Portuguese-FORCED-PGS
Language                                 : Portuguese
Default                                  : No
Forced                                   : No

Text #9
ID                                       : 17
Format                                   : PGS
Muxing mode                              : zlib
Codec ID                                 : S_HDMV/PGS
Codec ID/Info                            : Picture based subtitle format used on BDs/HD-DVDs
Duration                                 : 6 min 38 s
Bit rate                                 : 5 554 b/s
Count of elements                        : 36
Stream size                              : 270 KiB (0%)
Title                                    : Chinese-FORCED-PGS
Language                                 : Chinese
Default                                  : No
Forced                                   : No

Menu
00:00:00.000                             : en:Chapter 01
00:05:34.542                             : en:Chapter 02
00:10:07.815                             : en:Chapter 03
00:13:26.305                             : en:Chapter 04
00:16:39.790                             : en:Chapter 05
00:19:56.945                             : en:Chapter 06
00:24:10.073                             : en:Chapter 07
00:28:15.735                             : en:Chapter 08
00:30:54.269                             : en:Chapter 09
00:35:15.113                             : en:Chapter 10
00:39:55.976                             : en:Chapter 11
00:45:47.327                             : en:Chapter 12
00:49:51.822                             : en:Chapter 13
00:56:54.994                             : en:Chapter 14
00:58:35.220                             : en:Chapter 15
01:02:48.931                             : en:Chapter 16
01:07:16.615                             : en:Chapter 17
01:12:48.822                             : en:Chapter 18
01:15:21.808                             : en:Chapter 19
01:18:10.018                             : en:Chapter 20




                                                                                                                                                                                                        
                                                                                                                                                                                                                                                                                                                                                                                                                                                                                                                                                                                                                                                                                                                                                                                                                                                      
3c5dc7939a4453501de3e713aae18e3b.torrent (70.2 KB)

回復

使用道具 舉報

百度云電影論壇 ( 遼ICP備17019482號-3 )

本網站所有資源來自網絡,如無意中侵犯了您的權益,請發郵件至 [email protected],立即清除相關鏈接

GMT+8, 2020-2-18 13:04 , Processed in 0.100282 second(s), 21 queries .

Powered by Discuz! X3.2

© 2001-2013 Comsenz Inc.

快速回復 返回頂部 返回列表
江苏快三开奖结果全部